<?xml version="1.0" standalone="no"?>
<!DOCTYPE svg PUBLIC "-//W3C//DTD SVG 1.1//EN" "http://www.w3.org/Graphics/SVG/1.1/DTD/svg11.dtd" >
<svg xmlns="http://www.w3.org/2000/svg" xmlns:xlink="http://www.w3.org/1999/xlink" version="1.1">
<metadata>
Created by FontForge 20170731 at Mon Mar 21 04:03:01 2011
 By Aleksey,,,
Copyright (c) 2011 by Pablo Impallari. www.impallari.com Igino Marini. www.ikern.com. All rights reserved.
</metadata>
<defs>
<font id="Cabin-Bold" horiz-adv-x="625" >
  <font-face 
    font-family="Cabin"
    font-weight="700"
    font-stretch="normal"
    units-per-em="1000"
    panose-1="2 11 8 3 5 2 2 2 0 4"
    ascent="800"
    descent="-200"
    x-height="500"
    cap-height="700"
    bbox="-35 -250 1171 955"
    underline-thickness="50"
    underline-position="-200"
    unicode-range="U+0020-2122"
  />
<missing-glyph horiz-adv-x="250" 
d="M179 240h-124v130h124v-130z" />
    <glyph glyph-name=".notdef" horiz-adv-x="250" 
d="M179 240h-124v130h124v-130z" />
    <glyph glyph-name=".null" horiz-adv-x="0" 
 />
    <glyph glyph-name="nonmarkingreturn" horiz-adv-x="333" 
 />
    <glyph glyph-name="space" unicode=" " horiz-adv-x="225" 
 />
    <glyph glyph-name="exclam" unicode="!" horiz-adv-x="250" 
d="M187 750l-20 -550h-84l-20 550h124zM187 0h-124v124h124v-124z" />
    <glyph glyph-name="quotedbl" unicode="&#x22;" horiz-adv-x="396" 
d="M360 750l-20 -300h-84l-20 300h124zM160 750l-20 -300h-84l-20 300h124z" />
    <glyph glyph-name="numbersign" unicode="#" horiz-adv-x="710" 
d="M678 512l-34 -98h-114l-37 -99h125l-48 -104h-117l-84 -222h-96l84 222h-112l-86 -222h-94l84 222h-118l46 104h112l37 99h-121l32 98h126l74 188h94l-72 -188h114l72 188h94l-72 -188h111zM436 414h-114l-39 -99h114z" />
    <glyph glyph-name="dollar" unicode="$" horiz-adv-x="524" 
d="M298 80l16 -112h-107l16 111q-118 6 -175 40l17 127q67 -63 188 -63q102 0 102 53q0 28 -32.5 47.5t-78.5 33t-92.5 29.5t-79 48t-32.5 79q0 58 44 104.5t139 55.5l-16 115h107l-16 -115q47 -3 91.5 -14.5t67.5 -24.5l-11 -113q-100 52 -172 52q-112 0 -112 -48
q0 -26 33.5 -43t82 -29t96.5 -29t81.5 -54t33.5 -93q0 -25 -7.5 -47.5t-26.5 -46.5t-59.5 -41t-97.5 -22z" />
    <glyph glyph-name="percent" unicode="%" horiz-adv-x="842" 
d="M654 -9q-68 0 -109 49.5t-41 131.5q0 85 44 136.5t111 51.5q66 0 108 -49t42 -131q0 -86 -42.5 -137.5t-112.5 -51.5zM673 700l-422 -712h-104l422 712h104zM184 335q-68 0 -109 49.5t-41 131.5q0 85 44 136.5t111 51.5q66 0 108 -49t42 -131q0 -86 -42.5 -137.5
t-112.5 -51.5zM658 288q-31 0 -52.5 -29.5t-21.5 -86.5q0 -55 19.5 -81t51.5 -26q75 0 75 115q0 54 -21 81t-51 27zM188 632q-31 0 -52.5 -29t-21.5 -87q0 -55 19.5 -81t51.5 -26q75 0 75 115q0 54 -21 81t-51 27z" />
    <glyph glyph-name="ampersand" unicode="&#x26;" horiz-adv-x="627" 
d="M624 0h-144l-31 34q-73 -58 -184 -58q-115 0 -174 55.5t-59 136.5q0 63 32.5 110t89.5 89q-75 94 -75 171q0 75 60 120t143 45q75 0 117 -39t42 -104q0 -31 -10.5 -58t-35.5 -52t-42.5 -39t-53.5 -40l140 -160q8 40 10 141h119q0 -139 -49 -232zM276 604q-33 0 -54 -18.5
t-21 -52.5q0 -43 46 -101q85 60 85 114q0 58 -56 58zM386 105l-173 195q-52 -55 -52 -121q0 -46 27.5 -77t93.5 -31q65 0 104 34z" />
    <glyph glyph-name="quotesingle" unicode="'" horiz-adv-x="196" 
d="M160 750l-20 -300h-84l-20 300h124z" />
    <glyph glyph-name="parenleft" unicode="(" horiz-adv-x="277" 
d="M255 -136h-113q-50 88 -75.5 190.5t-25.5 252.5t25.5 252.5t75.5 190.5h113q-113 -199 -113 -443t113 -443z" />
    <glyph glyph-name="parenright" unicode=")" horiz-adv-x="277" 
d="M135 -136h-113q113 199 113 443t-113 443h113q50 -88 75.5 -190.5t25.5 -252.5t-25.5 -252.5t-75.5 -190.5z" />
    <glyph glyph-name="asterisk" unicode="*" horiz-adv-x="446" 
d="M309 412l-84 137l-86 -140l-67 65l121 91l-162 52l47 82l133 -107l-35 157h94l-36 -157l134 107l47 -82l-159 -50l120 -90z" />
    <glyph glyph-name="plus" unicode="+" horiz-adv-x="458" 
d="M414 230h-138v-128h-94v128h-138v94h138v128h94v-128h138v-94z" />
    <glyph glyph-name="comma" unicode="," horiz-adv-x="232" 
d="M178 0l-98 -110l-26 14l33 86l-33 10v130h124v-130z" />
    <glyph glyph-name="hyphen" unicode="-" horiz-adv-x="418" 
d="M364 230h-310v94h310v-94z" />
    <glyph glyph-name="period" unicode="." horiz-adv-x="232" 
d="M178 0h-124v130h124v-130z" />
    <glyph glyph-name="slash" unicode="/" horiz-adv-x="551" 
d="M518 700l-365 -785h-134l365 785h134z" />
    <glyph glyph-name="zero" unicode="0" horiz-adv-x="706" 
d="M347 -14q-130 0 -209 97t-79 256q0 165 86 270t214 105q125 0 206.5 -100.5t81.5 -257.5q0 -167 -82 -268.5t-218 -101.5zM357 601q-70 0 -120 -68t-50 -194q0 -120 44.5 -179t117.5 -59q78 0 125 62.5t47 192.5q0 118 -47.5 181.5t-116.5 63.5z" />
    <glyph glyph-name="one" unicode="1" horiz-adv-x="369" 
d="M272 0h-128v519q-42 -28 -88 -36l-11 108q33 7 74 40.5t55 68.5h98v-700z" />
    <glyph glyph-name="two" unicode="2" horiz-adv-x="529" 
d="M472 0h-428q122 176 187.5 286.5t80 150t14.5 70.5q0 47 -25.5 73.5t-71.5 26.5q-91 0 -161 -107l-16 115q19 35 72.5 67t130.5 32q100 0 146 -56.5t46 -131.5q0 -68 -42.5 -161t-140.5 -241h208v-124z" />
    <glyph glyph-name="three" unicode="3" horiz-adv-x="539" 
d="M224 -14q-60 0 -117.5 19t-70.5 35l31 118q22 -21 65.5 -35t86.5 -14q135 0 135 102q0 55 -27.5 87.5t-100.5 32.5h-90l11 99h46q133 0 133 92q0 84 -103 84q-85 0 -123 -34l-20 96q18 18 61.5 32t96.5 14q64 0 109.5 -18t67.5 -47.5t31 -59t9 -61.5q0 -91 -67 -140
q92 -55 92 -171q0 -110 -75.5 -170.5t-180.5 -60.5z" />
    <glyph glyph-name="four" unicode="4" horiz-adv-x="581" 
d="M524 190h-85v-190h-128v190h-301l322 510h107v-406h85v-104zM311 294v210l-127 -210h127z" />
    <glyph glyph-name="five" unicode="5" horiz-adv-x="537" 
d="M232 -13q-61 0 -120.5 20.5t-62.5 35.5l30 116q59 -52 149 -52q58 0 96.5 28.5t38.5 90.5q0 50 -36 78t-135 28h-107l44 368h321l-13 -124h-212l-17 -137q146 -2 212.5 -51.5t66.5 -156.5q0 -116 -75 -180t-180 -64z" />
    <glyph glyph-name="six" unicode="6" horiz-adv-x="562" 
d="M276 -14q-99 0 -158.5 64.5t-59.5 202.5q0 92 33.5 179t81 143.5t98 90.5t87.5 34l84 -50q-31 0 -87 -40.5t-105.5 -105.5t-56.5 -122q31 39 116 39q93 0 152 -52.5t59 -149.5q0 -96 -67.5 -164.5t-176.5 -68.5zM301 317q-53 0 -86 -29t-33 -85q0 -48 33.5 -75.5
t73.5 -27.5q50 0 81.5 35.5t31.5 85.5q0 37 -26 66.5t-75 29.5z" />
    <glyph glyph-name="seven" unicode="7" horiz-adv-x="510" 
d="M503 700l-292 -700h-134l240 576h-274v124h460z" />
    <glyph glyph-name="eight" unicode="8" horiz-adv-x="602" 
d="M291 -14q-115 0 -175 58t-60 141q0 113 108 192q-69 55 -69 160q0 77 49.5 127t160.5 50q106 0 154.5 -45.5t48.5 -116.5q0 -94 -86 -166q56 -26 90 -74t34 -108q0 -85 -65.5 -151.5t-189.5 -66.5zM300 614q-49 0 -71 -24.5t-22 -64.5q0 -76 88 -100q95 26 95 105
q0 37 -21.5 60.5t-68.5 23.5zM304 332q-51 -8 -88.5 -44t-37.5 -93q0 -51 31.5 -79t86.5 -28q58 0 91 30.5t33 81.5q0 53 -33 87t-83 45z" />
    <glyph glyph-name="nine" unicode="9" horiz-adv-x="564" 
d="M286 714q99 0 159 -65t60 -201q0 -93 -29.5 -178.5t-74 -143t-97 -92t-100.5 -34.5l-81 50q34 0 90.5 35t107 100t54.5 132q-17 -19 -58.5 -28.5t-63.5 -9.5q-95 0 -153 51.5t-58 147.5q0 99 67.5 167.5t176.5 68.5zM265 383q52 0 85.5 29t33.5 84t-31.5 79.5t-73.5 24.5
q-52 0 -82 -35.5t-30 -81.5q0 -41 24.5 -70.5t73.5 -29.5z" />
    <glyph glyph-name="colon" unicode=":" horiz-adv-x="232" 
d="M178 310h-124v130h124v-130zM178 0h-124v130h124v-130z" />
    <glyph glyph-name="semicolon" unicode=";" horiz-adv-x="247" 
d="M193 310h-137v130h137v-130zM180 0l-98 -110l-26 14l33 86l-33 10v130h124v-130z" />
    <glyph glyph-name="less" unicode="&#x3c;" horiz-adv-x="446" 
d="M388 78h-147l-212 206l212 206h147l-212 -206z" />
    <glyph glyph-name="equal" unicode="=" horiz-adv-x="494" 
d="M432 310h-370v94h370v-94zM432 150h-370v94h370v-94z" />
    <glyph glyph-name="greater" unicode="&#x3e;" horiz-adv-x="446" 
d="M417 284l-212 -206h-147l212 206l-212 206h147z" />
    <glyph glyph-name="question" unicode="?" horiz-adv-x="442" 
d="M244 200h-84q-3 45 -3 53q0 42 19.5 85.5t43 74t43 70.5t19.5 76q0 46 -28 69.5t-73 23.5q-78 0 -124 -65l-28 92q48 71 160 71q99 0 154.5 -60.5t55.5 -129.5q0 -33 -16 -68t-38.5 -66t-45.5 -63t-39 -71t-16 -79v-13zM264 0h-124v124h124v-124z" />
    <glyph glyph-name="at" unicode="@" horiz-adv-x="714" 
d="M541 379q-51 53 -122 53q-93 0 -173.5 -88.5t-80.5 -192.5q0 -48 22.5 -79.5t72.5 -31.5q43 0 95 32t81 84q0 -2 -1.5 -15t-1.5 -16q0 -32 13 -57.5t42 -25.5t68.5 19.5t64.5 44.5q-48 -87 -136.5 -140t-191.5 -53q-115 0 -181.5 68t-66.5 189q0 161 111.5 272t265.5 111
q117 0 183 -68.5t66 -185.5q0 -73 -25 -140q-19 -30 -56.5 -47.5t-66.5 -17.5q-37 0 -37 53q0 24 7.5 55.5t22.5 84t25 92.5zM420 371q46 0 54 -22q-14 -82 -74.5 -162.5t-110.5 -80.5q-22 0 -33 18t-11 46q0 79 60 140t115 61z" />
    <glyph glyph-name="A" unicode="A" 
d="M622 0h-133l-60 169h-233l-60 -169h-133l249 700h121zM385 293l-73 205l-72 -205h145z" />
    <glyph glyph-name="B" unicode="B" horiz-adv-x="626" 
d="M347 0h-270v700h189q53 0 90.5 -4t73 -15t57 -30.5t34.5 -52t13 -78.5q0 -97 -59 -146q62 -24 92 -63.5t30 -104.5q0 -58 -22 -100t-59.5 -64t-79 -32t-89.5 -10zM318 591h-113v-172h125q34 0 59.5 18.5t25.5 63.5q0 51 -24.5 70.5t-72.5 19.5zM338 318h-133v-209h126
q65 0 99.5 24t34.5 80q0 105 -127 105z" />
    <glyph glyph-name="C" unicode="C" horiz-adv-x="609" 
d="M380 -14q-152 0 -248.5 100.5t-96.5 263.5t96.5 263.5t248.5 100.5q115 0 199 -41l-14 -122q-101 40 -185 40q-99 0 -152 -66t-53 -175t53 -175t152 -66q84 0 185 40l14 -122q-84 -41 -199 -41z" />
    <glyph glyph-name="D" unicode="D" horiz-adv-x="720" 
d="M339 0h-262v700h262q153 0 249 -94t96 -256t-96 -256t-249 -94zM339 577h-134v-454h134q100 0 152.5 60t52.5 167t-52.5 167t-152.5 60z" />
    <glyph glyph-name="E" unicode="E" horiz-adv-x="568" 
d="M535 0h-458v700h448v-124h-317v-149h246v-124h-246v-179h327v-124z" />
    <glyph glyph-name="F" unicode="F" horiz-adv-x="525" 
d="M508 576h-303v-149h234v-124h-234v-303h-128v700h431v-124z" />
    <glyph glyph-name="G" unicode="G" horiz-adv-x="664" 
d="M377 -14q-149 0 -245.5 100.5t-96.5 264.5q0 163 97 263t252 100q53 0 113 -11.5t97 -29.5l-14 -122q-98 40 -193 40q-105 0 -158.5 -65.5t-53.5 -172.5q0 -111 56 -177.5t162 -66.5q43 0 96 11v125h-77v106h205v-312q-38 -22 -109 -37.5t-131 -15.5z" />
    <glyph glyph-name="H" unicode="H" horiz-adv-x="740" 
d="M663 0h-128v303h-330v-303h-128v700h128v-273h330v273h128v-700z" />
    <glyph glyph-name="I" unicode="I" horiz-adv-x="282" 
d="M205 0h-128v700h128v-700z" />
    <glyph glyph-name="J" unicode="J" horiz-adv-x="282" 
d="M43 -172h-36l-10 96h27q29 0 41 19t12 61v696h128v-724q0 -73 -42.5 -110.5t-119.5 -37.5z" />
    <glyph glyph-name="K" unicode="K" horiz-adv-x="621" 
d="M618 0h-144l-244 370l244 330h144l-244 -330zM205 0h-128v700h128v-700z" />
    <glyph glyph-name="L" unicode="L" horiz-adv-x="500" 
d="M493 0h-416v700h128v-576h288v-124z" />
    <glyph glyph-name="M" unicode="M" horiz-adv-x="833" 
d="M789 0h-133l-60 469l-179 -322l-180 321l-60 -468h-133l97 700h105l171 -319l170 319h105z" />
    <glyph glyph-name="N" unicode="N" horiz-adv-x="707" 
d="M630 0h-105l-320 480v-480h-128v700h126l299 -452v452h128v-700z" />
    <glyph glyph-name="O" unicode="O" horiz-adv-x="760" 
d="M380 -14q-152 0 -248.5 100.5t-96.5 263.5t96.5 263.5t248.5 100.5t248.5 -100.5t96.5 -263.5t-96.5 -263.5t-248.5 -100.5zM380 591q-99 0 -152 -66t-53 -175t53 -175t152 -66t152 66t53 175t-53 175t-152 66z" />
    <glyph glyph-name="P" unicode="P" horiz-adv-x="596" 
d="M330 230h-125v-230h-128v700h198q79 0 129.5 -8t92 -31t60 -67.5t18.5 -115.5t-23.5 -122.5t-62.5 -77.5t-78 -37t-81 -11zM310 593h-105v-243h108q71 0 101.5 28.5t30.5 98.5q0 62 -28.5 89t-106.5 27z" />
    <glyph glyph-name="Q" unicode="Q" horiz-adv-x="760" 
d="M725 79l-74 -89l-69 57q-84 -61 -202 -61q-152 0 -248.5 100.5t-96.5 263.5t96.5 263.5t248.5 100.5t248.5 -100.5t96.5 -263.5q0 -126 -62 -220zM380 591q-99 0 -152 -66t-53 -175t53 -175t152 -66q57 0 100 23l-84 71l74 89l88 -74q27 56 27 132q0 109 -53 175t-152 66
z" />
    <glyph glyph-name="R" unicode="R" horiz-adv-x="626" 
d="M613 0h-133l-145 260h-130v-260h-128v700h256q241 0 241 -202q0 -75 -31 -122t-88 -82zM304 593h-99v-213h94q81 0 111 28t30 81t-29 78.5t-107 25.5z" />
    <glyph glyph-name="S" unicode="S" horiz-adv-x="580" 
d="M280 -14q-75 0 -137 15t-95 36l15 146q32 -31 89.5 -52.5t130.5 -21.5q125 0 125 76q0 21 -10 38t-21.5 28t-38.5 23.5t-42 18t-51 17.5q-31 10 -43.5 15t-40 16.5t-40.5 20t-32 24t-28 31.5t-16 38.5t-7 48.5q0 82 62 146t191 64q67 0 129.5 -17t93.5 -37l-13 -131
q-115 63 -205 63q-51 0 -89.5 -17t-38.5 -57q0 -38 35 -58.5t106 -42.5q37 -11 56.5 -18t53.5 -21t53 -29.5t39.5 -38t30 -53t9.5 -67.5q0 -28 -5 -52.5t-22.5 -53.5t-46 -49.5t-79 -34.5t-118.5 -14z" />
    <glyph glyph-name="T" unicode="T" horiz-adv-x="554" 
d="M539 576h-198v-576h-128v576h-198v124h524v-124z" />
    <glyph glyph-name="U" unicode="U" horiz-adv-x="718" 
d="M359 -14q-144 0 -217 83.5t-73 230.5v400h128v-357q0 -111 34.5 -172.5t127.5 -61.5t127.5 61.5t34.5 172.5v357h128v-400q0 -147 -73 -230.5t-217 -83.5z" />
    <glyph glyph-name="V" unicode="V" horiz-adv-x="657" 
d="M654 700l-246 -700h-156l-252 700h133l196 -531l193 531h132z" />
    <glyph glyph-name="W" unicode="W" horiz-adv-x="963" 
d="M957 700l-205 -700h-113l-156 467l-155 -467h-121l-197 700h133l140 -497l156 497h89l162 -484l134 484h133z" />
    <glyph glyph-name="X" unicode="X" horiz-adv-x="627" 
d="M629 0h-148l-170 257l-165 -257h-147l247 349l-236 351h148l162 -246l148 246h147l-230 -337z" />
    <glyph glyph-name="Y" unicode="Y" horiz-adv-x="598" 
d="M605 700l-242 -390v-310h-128v310l-242 390h136l170 -276l170 276h136z" />
    <glyph glyph-name="Z" unicode="Z" horiz-adv-x="548" 
d="M541 700l-322 -576h277v-124h-488l322 576h-277v124h488z" />
    <glyph glyph-name="bracketleft" unicode="[" horiz-adv-x="335" 
d="M324 -136h-257v886h257v-109h-144v-668h144v-109z" />
    <glyph glyph-name="backslash" unicode="\" horiz-adv-x="551" 
d="M532 -85h-134l-365 785h134z" />
    <glyph glyph-name="bracketright" unicode="]" horiz-adv-x="340" 
d="M273 -136h-257v124h144v638h-144v124h257v-886z" />
    <glyph glyph-name="asciicircum" unicode="^" horiz-adv-x="511" 
d="M461 400l-206 212l-206 -212v147l206 212l206 -212v-147z" />
    <glyph glyph-name="underscore" unicode="_" horiz-adv-x="558" 
d="M559 -130h-560v94h560v-94z" />
    <glyph glyph-name="grave" unicode="`" horiz-adv-x="303" 
d="M245 585l-187 61v104l187 -91v-74z" />
    <glyph glyph-name="a" unicode="a" horiz-adv-x="498" 
d="M487 92l-11 -102h-45q-81 0 -112 58q-52 -58 -153 -58q-62 0 -103.5 40.5t-41.5 109.5q0 50 29.5 86.5t76.5 55t90.5 27.5t84.5 10q-2 44 -22.5 63t-67.5 19q-60 0 -137 -38l-11 101q91 44 182 44q181 0 181 -201v-135q0 -54 8 -67t36 -13h16zM303 121v114
q-60 -3 -106 -26t-46 -64q0 -60 67 -60q48 0 85 36z" />
    <glyph glyph-name="b" unicode="b" horiz-adv-x="571" 
d="M298 -10q-68 0 -123 38l-2 -28h-116v750h124v-275q50 33 117 33q115 0 180 -74.5t65 -184.5t-65 -184.5t-180 -74.5zM290 406q-58 0 -86.5 -42t-28.5 -115t28.5 -115t86.5 -42q59 0 92.5 43t33.5 114t-33.5 114t-92.5 43z" />
    <glyph glyph-name="c" unicode="c" horiz-adv-x="448" 
d="M271 -10q-115 0 -179 74t-64 185t64 185t179 74q91 0 150 -37l-11 -106q-62 41 -129 41q-59 0 -92.5 -43t-33.5 -114t33.5 -114t92.5 -43q67 0 129 41l11 -106q-59 -37 -150 -37z" />
    <glyph glyph-name="d" unicode="d" horiz-adv-x="571" 
d="M514 0h-117l-2 28q-55 -38 -122 -38q-115 0 -180 74.5t-65 184.5t65 184.5t180 74.5q67 0 117 -33v275h124v-750zM281 406q-59 0 -92.5 -43t-33.5 -114t33.5 -114t92.5 -43q58 0 86.5 42t28.5 115t-28.5 115t-86.5 42z" />
    <glyph glyph-name="e" unicode="e" horiz-adv-x="515" 
d="M480 223h-323q10 -65 52.5 -98t96.5 -33q34 0 78 12t76 29l6 -105q-72 -38 -167 -38q-130 0 -200.5 74t-70.5 185q0 109 64.5 184t175.5 75q96 0 158 -59.5t62 -157.5q0 -30 -8 -68zM272 406q-46 0 -74 -27t-38 -72h202q0 39 -22 69t-68 30z" />
    <glyph glyph-name="f" unicode="f" horiz-adv-x="340" 
d="M322 398h-110v-398h-124v398h-71l11 102h60v119q0 53 31.5 92t88.5 39q47 0 113 -6l-11 -103q-22 5 -53 5q-27 0 -36 -16t-9 -62v-68h110v-102z" />
    <glyph glyph-name="g" unicode="g" horiz-adv-x="501" 
d="M260 -250q-116 0 -176 43.5t-60 104.5q0 69 82 112q-45 28 -45 72t50 68q-77 55 -77 161q0 84 54 140.5t149 56.5q67 0 114 -30q40 22 107 22h32l-8 -78h-45q-17 0 -28 -1q30 -47 30 -110q0 -84 -53.5 -140.5t-148.5 -56.5q-25 0 -53 5q-11 -5 -11 -16q0 -17 27.5 -25
t97.5 -16q28 -4 49 -7.5t52 -14.5t50.5 -26t34.5 -41.5t15 -61.5q0 -74 -62.5 -117.5t-176.5 -43.5zM237 417q-45 0 -68.5 -28.5t-23.5 -77.5t23.5 -77.5t68.5 -28.5q44 0 67.5 28.5t23.5 77.5t-23.5 77.5t-67.5 28.5zM256 -30q-27 3 -60 9q-69 -23 -69 -69
q0 -33 33.5 -52.5t93.5 -19.5q59 0 97 18t38 50q0 17 -11 29t-33.5 18.5t-40 10t-48.5 6.5z" />
    <glyph glyph-name="h" unicode="h" horiz-adv-x="551" 
d="M498 0h-124v269q0 70 -23.5 103.5t-75.5 33.5q-57 0 -94 -43v-363h-124v750h124v-276q52 34 104 34q213 0 213 -239v-269z" />
    <glyph glyph-name="i" unicode="i" horiz-adv-x="240" 
d="M182 576h-124v124h124v-124zM182 0h-124v500h124v-500z" />
    <glyph glyph-name="j" unicode="j" horiz-adv-x="240" 
d="M54 -242h-45l-11 102q41 0 50.5 11.5t9.5 68.5v560h124v-611q0 -58 -32 -94.5t-96 -36.5zM182 576h-124v124h124v-124z" />
    <glyph glyph-name="k" unicode="k" horiz-adv-x="485" 
d="M181 0h-124v750h124v-455l159 205h140l-183 -240l183 -260h-140l-159 222v-222z" />
    <glyph glyph-name="l" unicode="l" horiz-adv-x="263" 
d="M242 92l-11 -102h-45q-64 0 -96 36.5t-32 94.5v629h124v-578q0 -57 10 -68.5t50 -11.5z" />
    <glyph glyph-name="m" unicode="m" horiz-adv-x="866" 
d="M813 0h-124v269q0 71 -21 104t-72 33q-56 0 -77.5 -26t-21.5 -71v-309h-123v269q0 79 -23 108t-77 29q-57 0 -92 -41v-365h-124v500h102l7 -39q57 47 128 47q46 0 87 -19.5t66 -56.5q15 28 59.5 52t106.5 24q98 0 148.5 -65t50.5 -174v-269z" />
    <glyph glyph-name="n" unicode="n" horiz-adv-x="552" 
d="M499 0h-124v269q0 70 -23.5 103.5t-75.5 33.5q-57 0 -94 -43v-363h-124v500h116l2 -30q52 38 110 38q213 0 213 -239v-269z" />
    <glyph glyph-name="o" unicode="o" horiz-adv-x="562" 
d="M281 -10q-116 0 -184.5 75t-68.5 184t68.5 184t184.5 75t184.5 -75t68.5 -184t-68.5 -184t-184.5 -75zM281 406q-59 0 -92.5 -43t-33.5 -114t33.5 -114t92.5 -43t92.5 43t33.5 114t-33.5 114t-92.5 43z" />
    <glyph glyph-name="p" unicode="p" horiz-adv-x="572" 
d="M299 -10q-66 0 -117 34v-266h-124v742h108l10 -29q55 37 123 37q115 0 180 -74.5t65 -184.5t-65 -184.5t-180 -74.5zM291 406q-58 0 -86.5 -42t-28.5 -115t28.5 -115t86.5 -42q59 0 92.5 43t33.5 114t-33.5 114t-92.5 43z" />
    <glyph glyph-name="q" unicode="q" horiz-adv-x="572" 
d="M273 -10q-115 0 -180 74.5t-65 184.5t65 184.5t180 74.5q68 0 123 -37l10 29h108v-742h-124v266q-51 -34 -117 -34zM281 406q-59 0 -92.5 -43t-33.5 -114t33.5 -114t92.5 -43q58 0 86.5 42t28.5 115t-28.5 115t-86.5 42z" />
    <glyph glyph-name="r" unicode="r" horiz-adv-x="342" 
d="M343 508l-24 -117h-46q-30 0 -55 -14t-36 -36v-341h-124v500h116l3 -53q59 61 133 61h33z" />
    <glyph glyph-name="s" unicode="s" horiz-adv-x="423" 
d="M200 -10q-113 0 -169 37l11 106q25 -19 69.5 -34.5t84.5 -15.5q41 0 58.5 16t17.5 39q0 28 -22.5 42.5t-69.5 28.5q-28 8 -43 13.5t-37.5 17t-34 25t-20.5 35t-9 49.5q0 63 43.5 111t139.5 48q46 0 90.5 -11t66.5 -26l-11 -106q-21 21 -60 37.5t-77 16.5
q-36 0 -59.5 -13.5t-23.5 -41.5q0 -8 1.5 -14.5t5.5 -12t8 -10t12 -8.5t13.5 -6.5t16.5 -6t17 -5.5t19.5 -5.5t20.5 -5.5q63 -18 100 -51t37 -102q0 -147 -196 -147z" />
    <glyph glyph-name="t" unicode="t" horiz-adv-x="344" 
d="M321 92l-11 -102h-89q-66 0 -100 38.5t-34 92.5v277h-71l11 102h60v110l124 13v-123h110v-102h-110v-226q0 -56 11.5 -68t64.5 -12h34z" />
    <glyph glyph-name="u" unicode="u" horiz-adv-x="552" 
d="M494 0h-116l-2 30q-53 -40 -111 -40q-212 0 -212 241v269h124v-269q0 -70 23.5 -103.5t75.5 -33.5q58 0 94 42v364h124v-500z" />
    <glyph glyph-name="v" unicode="v" horiz-adv-x="496" 
d="M493 500l-192 -500h-106l-192 500h122l123 -346l123 346h122z" />
    <glyph glyph-name="w" unicode="w" horiz-adv-x="726" 
d="M716 500l-146 -500h-104l-103 326l-103 -326h-104l-146 500h121l86 -349l94 339h104l93 -339l87 349h121z" />
    <glyph glyph-name="x" unicode="x" horiz-adv-x="491" 
d="M481 0h-148l-91 141l-84 -141h-148l161 250l-161 250h148l91 -141l84 141h148l-162 -250z" />
    <glyph glyph-name="y" unicode="y" horiz-adv-x="537" 
d="M535 500l-313 -742h-124l111 275l-208 467h138l128 -322l130 322h138z" />
    <glyph glyph-name="z" unicode="z" horiz-adv-x="472" 
d="M452 500l-221 -390h210v-110h-420l221 390h-211v110h421z" />
    <glyph glyph-name="braceleft" unicode="{" horiz-adv-x="319" 
d="M89 29q0 18 3.5 66t3.5 71q0 54 -17.5 85.5t-64.5 55.5q46 24 64 54.5t18 87.5q0 23 -3.5 70.5t-3.5 65.5q0 83 49.5 124t168.5 41v-109q-32 0 -50.5 -1t-33 -8.5t-21 -14t-10.5 -26.5t-4.5 -36.5t-0.5 -54.5q0 -13 1.5 -40.5t1.5 -41.5q0 -79 -51 -111q51 -31 51 -103
q0 -13 -1.5 -42.5t-1.5 -46.5q0 -38 0.5 -54.5t4.5 -37t10.5 -27t21 -14t33 -8.5t50.5 -1v-109q-117 0 -167.5 40t-50.5 125z" />
    <glyph glyph-name="bar" unicode="|" horiz-adv-x="234" 
d="M167 -210h-100v960h100v-960z" />
    <glyph glyph-name="braceright" unicode="}" horiz-adv-x="319" 
d="M230 29q0 -85 -50.5 -125t-167.5 -40v109q32 0 50.5 1t33 8.5t21 14t10.5 27t4.5 37t0.5 54.5q0 17 -1.5 46.5t-1.5 42.5q0 72 51 103q-51 32 -51 111q0 14 1.5 41.5t1.5 40.5q0 38 -0.5 54.5t-4.5 36.5t-10.5 26.5t-21 14t-33 8.5t-50.5 1v109q119 0 168.5 -41
t49.5 -124q0 -18 -3.5 -65.5t-3.5 -70.5q0 -57 18 -87.5t64 -54.5q-47 -24 -64.5 -55.5t-17.5 -85.5q0 -23 3.5 -71t3.5 -66z" />
    <glyph glyph-name="asciitilde" unicode="~" horiz-adv-x="466" 
d="M304 176q-29 0 -69.5 21t-57.5 21q-20 0 -32 -14.5t-16 -32.5l-83 20q5 47 42.5 74.5t82.5 27.5q33 0 67.5 -21t50.5 -21q22 0 38 15t19 32l76 -20q-7 -41 -38.5 -71.5t-79.5 -30.5z" />
    <glyph glyph-name="exclamdown" unicode="&#xa1;" horiz-adv-x="230" 
d="M53 -250l20 550h84l20 -550h-124zM53 500h124v-124h-124v124z" />
    <glyph glyph-name="cent" unicode="&#xa2;" horiz-adv-x="476" 
d="M304 89l15 -121h-96l16 123q-98 13 -151.5 84.5t-53.5 172.5t54.5 173t152.5 84l-18 143h96l-17 -142q73 -3 125 -36l-11 -106q-62 41 -129 41q-59 0 -92.5 -43t-33.5 -114t33.5 -114t92.5 -43q67 0 129 41l11 -106q-50 -32 -123 -37z" />
    <glyph glyph-name="sterling" unicode="&#xa3;" horiz-adv-x="525" 
d="M471 604l-48 -61q-6 20 -11 31.5t-14 24.5t-22.5 19t-31.5 6q-25 0 -40.5 -10.5t-22 -33t-8.5 -44t-2 -56.5v-84h183l-20 -84h-167q-8 -116 -48 -208h243v-104h-431q99 118 118 312h-89l20 84h74v104q0 42 5.5 73.5t22 64.5t52 50.5t89.5 17.5q123 0 148 -102z" />
    <glyph glyph-name="currency" unicode="&#xa4;" horiz-adv-x="628" 
d="M574 69l-60 -50l-75 99q-53 -29 -125 -29t-125 29l-74 -99l-60 50l72 97q-66 72 -66 182t67 182l-73 97l60 50l74 -99q56 29 125 29q70 0 125 -30l75 100l60 -50l-73 -98q66 -72 66 -181t-67 -182zM314 505q-59 0 -92.5 -43t-33.5 -114t33.5 -114t92.5 -43t92.5 43
t33.5 114t-33.5 114t-92.5 43z" />
    <glyph glyph-name="yen" unicode="&#xa5;" horiz-adv-x="706" 
d="M679 700l-244 -363h146l-26 -69h-138v-61h164l-26 -69h-138v-138h-128v138h-165l24 69h141v61h-165l24 69h123l-244 363h133l193 -276l193 276h133z" />
    <glyph glyph-name="brokenbar" unicode="&#xa6;" horiz-adv-x="224" 
d="M156 284h-88v466h88v-466zM156 -210h-88v400h88v-400z" />
    <glyph glyph-name="section" unicode="&#xa7;" horiz-adv-x="460" 
d="M335 186q43 -36 43 -104t-40 -117.5t-131 -49.5q-40 0 -83 12.5t-60 28.5l9 105q69 -50 129 -50q90 0 90 58q0 30 -26 50t-63 33.5t-74.5 31.5t-63.5 55t-26 93q0 111 85 147q-43 34 -43 104q0 68 40.5 117.5t131.5 49.5q40 0 83 -12.5t60 -28.5l-9 -105q-69 50 -129 50
q-90 0 -90 -58q0 -30 26 -50t63 -33.5t74.5 -31.5t63.5 -55t26 -93q0 -112 -86 -147zM197 408q-19 0 -41 -16.5t-22 -37.5q0 -74 131 -107q18 0 40.5 21.5t22.5 42.5q0 19 -9.5 34t-21 24t-33 18t-33 12z" />
    <glyph glyph-name="dieresis" unicode="&#xa8;" horiz-adv-x="422" 
d="M335 594h-97v106h97v-106zM184 594h-97v106h97v-106z" />
    <glyph glyph-name="copyright" unicode="&#xa9;" horiz-adv-x="701" 
d="M351 37q-136 0 -223.5 91t-87.5 237q0 147 87.5 237.5t223.5 90.5t223 -90.5t87 -237.5t-87 -237.5t-223 -90.5zM351 623q-114 0 -174 -71t-60 -187t60 -187.5t174 -71.5q113 0 173 71.5t60 187.5t-60 187t-173 71zM359 190q-72 0 -118 48t-46 125q0 78 45.5 126
t118.5 48q52 0 102 -23l-10 -85q-55 23 -92 23q-35 0 -54 -23.5t-19 -65.5q0 -41 19 -65t54 -24q40 0 92 25l10 -84q-44 -25 -102 -25z" />
    <glyph glyph-name="ordfeminine" unicode="&#xaa;" horiz-adv-x="361" 
d="M325 519l-4 -85q-91 0 -115 20q-21 -20 -94 -20q-33 0 -57.5 23.5t-24.5 68.5q0 28 19.5 49.5t49 32t52 15.5t38.5 6q-1 0 -4.5 4.5t-12 9t-23.5 4.5q-20 0 -50.5 -7t-38.5 -8l-5 81q63 19 123 19q46 0 80.5 -22.5t34.5 -59.5v-107q0 -24 16 -24h16zM190 501v62
q-50 -11 -50 -35q0 -13 10.5 -21t25.5 -8q4 0 14 2z" />
    <glyph glyph-name="guillemotleft" unicode="&#xab;" horiz-adv-x="607" 
d="M570 78h-147l-152 206l152 206h147l-152 -206zM310 78h-147l-152 206l152 206h147l-152 -206z" />
    <glyph glyph-name="logicalnot" unicode="&#xac;" horiz-adv-x="588" 
d="M520 151h-94v161h-366v94h460v-255z" />
    <glyph glyph-name="uni00AD" unicode="&#xad;" horiz-adv-x="418" 
d="M364 230h-310v94h310v-94z" />
    <glyph glyph-name="registered" unicode="&#xae;" horiz-adv-x="701" 
d="M351 37q-136 0 -223.5 91t-87.5 237q0 147 87.5 237.5t223.5 90.5t223 -90.5t87 -237.5t-87 -237.5t-223 -90.5zM351 622q-113 0 -173 -70.5t-60 -186.5q0 -115 60 -186.5t173 -71.5t172.5 71.5t59.5 186.5q0 116 -59.5 186.5t-172.5 70.5zM498 203h-93l-62 112h-30v-112
h-88v335h127q119 0 119 -110q0 -28 -14 -51.5t-33 -35.5zM339 463h-26v-67h24q26 0 35 8.5t9 25.5t-8 25t-34 8z" />
    <glyph glyph-name="degree" unicode="&#xb0;" horiz-adv-x="325" 
d="M162 482q-60 0 -96 39t-36 97t36 97.5t96 39.5q61 0 97 -39.5t36 -97.5t-36 -97t-97 -39zM162 704q-30 0 -47 -23.5t-17 -62.5t17 -62t47 -23q31 0 47.5 23t16.5 62t-16.5 62.5t-47.5 23.5z" />
    <glyph glyph-name="plusminus" unicode="&#xb1;" horiz-adv-x="487" 
d="M428 310h-138v-128h-94v128h-138v94h138v128h94v-128h138v-94zM428 30h-370v94h370v-94z" />
    <glyph glyph-name="twosuperior" unicode="&#xb2;" horiz-adv-x="309" 
d="M276 320h-259q156 214 156 270q0 43 -36 43q-18 0 -35 -9t-28.5 -22t-18 -22.5t-10.5 -16.5l-12 87q31 56 121 56q58 0 83.5 -30t25.5 -69q0 -66 -81 -188h94v-99z" />
    <glyph glyph-name="threesuperior" unicode="&#xb3;" horiz-adv-x="305" 
d="M124 312q-32 0 -66.5 10.5t-40.5 19.5l24 90q31 -22 76 -22q67 0 67 22q0 57 -44 57h-66l7 72h34q19 0 31.5 6.5t16 13t3.5 11.5q0 37 -63 37q-33 0 -47 -13l-13 65q12 11 38 18t50 7q38 0 65.5 -10.5t40 -28t18 -34t5.5 -33.5q0 -18 -4.5 -35t-8.5 -25.5t-7 -9.5
q3 -7 13 -21t16 -30t6 -39q0 -60 -44.5 -94t-106.5 -34z" />
    <glyph glyph-name="acute" unicode="&#xb4;" horiz-adv-x="303" 
d="M245 646l-187 -61v74l187 91v-104z" />
    <glyph glyph-name="mu" unicode="&#xb5;" horiz-adv-x="609" 
d="M570 92l-11 -102h-45q-76 0 -108 52q-22 -21 -56.5 -35.5t-67.5 -14.5q-50 0 -89 14v-248h-124v742h124v-269q0 -70 23.5 -103.5t75.5 -33.5q58 0 94 42v364h124v-328q0 -54 8 -67t36 -13h16z" />
    <glyph glyph-name="paragraph" unicode="&#xb6;" 
d="M580 593h-69v-593h-88v593h-62v-593h-69v229q-122 7 -190.5 76.5t-68.5 160.5q0 95 75 164.5t212 69.5h260v-107z" />
    <glyph glyph-name="periodcentered" unicode="&#xb7;" horiz-adv-x="232" 
d="M178 213h-124v130h124v-130z" />
    <glyph glyph-name="cedilla" unicode="&#xb8;" horiz-adv-x="303" 
d="M303 -52l-100 -133l-74 -9l70 133z" />
    <glyph glyph-name="onesuperior" unicode="&#xb9;" horiz-adv-x="221" 
d="M163 320h-96v253l-39 -8v74q19 0 37 19t22 40h76v-378z" />
    <glyph glyph-name="ordmasculine" unicode="&#xba;" horiz-adv-x="377" 
d="M188 434q-73 0 -116.5 44t-43.5 105t43.5 105t116.5 44t116.5 -44t43.5 -105t-43.5 -105t-116.5 -44zM188 655q-25 0 -40 -21.5t-15 -50.5t15 -50.5t40 -21.5t40 21.5t15 50.5t-15 50.5t-40 21.5z" />
    <glyph glyph-name="guillemotright" unicode="&#xbb;" horiz-adv-x="607" 
d="M596 284l-152 -206h-147l152 206l-152 206h147zM336 284l-152 -206h-147l152 206l-152 206h147z" />
    <glyph glyph-name="onequarter" unicode="&#xbc;" horiz-adv-x="736" 
d="M178 320h-96v253l-39 -8v74q19 0 37 19t22 40h76v-378zM558 700l-365 -785h-134l365 785h134zM703 103h-49v-103h-96v103h-175l187 275h84v-204h49v-71zM558 174v76l-54 -76h54z" />
    <glyph glyph-name="onehalf" unicode="&#xbd;" horiz-adv-x="733" 
d="M555 700l-365 -785h-134l365 785h134zM698 0h-259q156 214 156 270q0 43 -36 43q-18 0 -35 -9t-28.5 -22t-18 -22.5t-10.5 -16.5l-12 87q31 56 121 56q58 0 83.5 -30t25.5 -69q0 -66 -81 -188h94v-99zM175 320h-96v253l-39 -8v74q19 0 37 19t22 40h76v-378z" />
    <glyph glyph-name="threequarters" unicode="&#xbe;" horiz-adv-x="904" 
d="M722 700l-365 -785h-134l365 785h134zM138 312q-32 0 -66.5 10.5t-40.5 19.5l24 90q31 -22 76 -22q67 0 67 22q0 57 -44 57h-66l7 72h34q19 0 31.5 6.5t16 13t3.5 11.5q0 37 -63 37q-33 0 -47 -13l-13 65q12 11 38 18t50 7q38 0 65.5 -10.5t40 -28t18 -34t5.5 -33.5
q0 -18 -4.5 -35t-8.5 -25.5t-7 -9.5q3 -7 13 -21t16 -30t6 -39q0 -60 -44.5 -94t-106.5 -34zM870 103h-49v-103h-96v103h-175l187 275h84v-204h49v-71zM725 174v76l-54 -76h54z" />
    <glyph glyph-name="questiondown" unicode="&#xbf;" horiz-adv-x="438" 
d="M201 300h84q3 -45 3 -53q0 -42 -19.5 -85.5t-43 -74t-43 -70.5t-19.5 -76q0 -46 28 -69.5t73 -23.5q78 0 124 65l28 -92q-48 -71 -160 -71q-99 0 -154.5 60.5t-55.5 129.5q0 33 16 68t38.5 66t45.5 63t39 71t16 79v13zM181 500h124v-124h-124v124z" />
    <glyph glyph-name="Agrave" unicode="&#xc0;" 
d="M622 0h-133l-60 169h-233l-60 -169h-133l249 700h121zM385 293l-73 205l-72 -205h145zM406 785l-187 61v104l187 -91v-74z" />
    <glyph glyph-name="Aacute" unicode="&#xc1;" 
d="M622 0h-133l-60 169h-233l-60 -169h-133l249 700h121zM385 293l-73 205l-72 -205h145zM406 846l-187 -61v74l187 91v-104z" />
    <glyph glyph-name="Acircumflex" unicode="&#xc2;" 
d="M622 0h-133l-60 169h-233l-60 -169h-133l249 700h121zM385 293l-73 205l-72 -205h145zM459 785l-147 71l-147 -71v74l147 91l147 -91v-74z" />
    <glyph glyph-name="Atilde" unicode="&#xc3;" 
d="M622 0h-133l-60 169h-233l-60 -169h-133l249 700h121zM385 293l-73 205l-72 -205h145zM382 799q-29 0 -69.5 21t-57.5 21q-20 0 -32 -14.5t-16 -32.5l-83 20q5 47 42.5 74.5t82.5 27.5q33 0 67.5 -21t50.5 -21q22 0 38 15t19 32l76 -20q-7 -41 -38.5 -71.5t-79.5 -30.5z
" />
    <glyph glyph-name="Adieresis" unicode="&#xc4;" 
d="M622 0h-133l-60 169h-233l-60 -169h-133l249 700h121zM385 293l-73 205l-72 -205h145zM436 794h-97v106h97v-106zM285 794h-97v106h97v-106z" />
    <glyph glyph-name="Aring" unicode="&#xc5;" 
d="M622 0h-133l-60 169h-233l-60 -169h-133l249 700h121zM385 293l-73 205l-72 -205h145zM312 776q-47 0 -75.5 25.5t-28.5 63.5t28.5 64t75.5 26t75.5 -26t28.5 -64t-28.5 -63.5t-75.5 -25.5zM312 906q-19 0 -31.5 -11.5t-12.5 -29.5t12.5 -29.5t31.5 -11.5t31.5 11.5
t12.5 29.5t-12.5 29.5t-31.5 11.5z" />
    <glyph glyph-name="AE" unicode="&#xc6;" horiz-adv-x="867" 
d="M833 0h-436v169h-194l-81 -169h-133l341 700h494v-124h-296v-149h228v-124h-228v-179h305v-124zM397 293v280l-135 -280h135z" />
    <glyph glyph-name="Ccedilla" unicode="&#xc7;" horiz-adv-x="610" 
d="M380 -14q-152 0 -248.5 100.5t-96.5 263.5t96.5 263.5t248.5 100.5q115 0 199 -41l-14 -122q-101 40 -185 40q-99 0 -152 -66t-53 -175t53 -175t152 -66q84 0 185 40l14 -122q-84 -41 -199 -41zM391 -52l-100 -133l-74 -9l70 133z" />
    <glyph glyph-name="Egrave" unicode="&#xc8;" horiz-adv-x="568" 
d="M535 0h-458v700h448v-124h-317v-149h246v-124h-246v-179h327v-124zM367 785l-187 61v104l187 -91v-74z" />
    <glyph glyph-name="Eacute" unicode="&#xc9;" horiz-adv-x="568" 
d="M535 0h-458v700h448v-124h-317v-149h246v-124h-246v-179h327v-124zM367 846l-187 -61v74l187 91v-104z" />
    <glyph glyph-name="Ecircumflex" unicode="&#xca;" horiz-adv-x="568" 
d="M535 0h-458v700h448v-124h-317v-149h246v-124h-246v-179h327v-124zM420 785l-147 71l-147 -71v74l147 91l147 -91v-74z" />
    <glyph glyph-name="Edieresis" unicode="&#xcb;" horiz-adv-x="568" 
d="M535 0h-458v700h448v-124h-317v-149h246v-124h-246v-179h327v-124zM397 794h-97v106h97v-106zM246 794h-97v106h97v-106z" />
    <glyph glyph-name="Igrave" unicode="&#xcc;" horiz-adv-x="282" 
d="M205 0h-128v700h128v-700zM235 785l-187 61v104l187 -91v-74z" />
    <glyph glyph-name="Iacute" unicode="&#xcd;" horiz-adv-x="282" 
d="M205 0h-128v700h128v-700zM235 846l-187 -61v74l187 91v-104z" />
    <glyph glyph-name="Icircumflex" unicode="&#xce;" horiz-adv-x="282" 
d="M205 0h-128v700h128v-700zM288 785l-147 71l-147 -71v74l147 91l147 -91v-74z" />
    <glyph glyph-name="Idieresis" unicode="&#xcf;" horiz-adv-x="282" 
d="M205 0h-128v700h128v-700zM265 794h-97v106h97v-106zM114 794h-97v106h97v-106z" />
    <glyph glyph-name="Eth" unicode="&#xd0;" horiz-adv-x="731" 
d="M350 0h-262v299h-92v94h92v307h262q153 0 249 -94t96 -256t-96 -256t-249 -94zM350 577h-134v-184h122v-94h-122v-176h134q100 0 152.5 60t52.5 167t-52.5 167t-152.5 60z" />
    <glyph glyph-name="Ntilde" unicode="&#xd1;" horiz-adv-x="707" 
d="M630 0h-105l-320 480v-480h-128v700h126l299 -452v452h128v-700zM423 799q-29 0 -69.5 21t-57.5 21q-20 0 -32 -14.5t-16 -32.5l-83 20q5 47 42.5 74.5t82.5 27.5q33 0 67.5 -21t50.5 -21q22 0 38 15t19 32l76 -20q-7 -41 -38.5 -71.5t-79.5 -30.5z" />
    <glyph glyph-name="Ograve" unicode="&#xd2;" horiz-adv-x="760" 
d="M380 -14q-152 0 -248.5 100.5t-96.5 263.5t96.5 263.5t248.5 100.5t248.5 -100.5t96.5 -263.5t-96.5 -263.5t-248.5 -100.5zM380 591q-99 0 -152 -66t-53 -175t53 -175t152 -66t152 66t53 175t-53 175t-152 66zM473 785l-187 61v104l187 -91v-74z" />
    <glyph glyph-name="Oacute" unicode="&#xd3;" horiz-adv-x="760" 
d="M380 -14q-152 0 -248.5 100.5t-96.5 263.5t96.5 263.5t248.5 100.5t248.5 -100.5t96.5 -263.5t-96.5 -263.5t-248.5 -100.5zM380 591q-99 0 -152 -66t-53 -175t53 -175t152 -66t152 66t53 175t-53 175t-152 66zM473 846l-187 -61v74l187 91v-104z" />
    <glyph glyph-name="Ocircumflex" unicode="&#xd4;" horiz-adv-x="760" 
d="M380 -14q-152 0 -248.5 100.5t-96.5 263.5t96.5 263.5t248.5 100.5t248.5 -100.5t96.5 -263.5t-96.5 -263.5t-248.5 -100.5zM380 591q-99 0 -152 -66t-53 -175t53 -175t152 -66t152 66t53 175t-53 175t-152 66zM527 785l-147 71l-147 -71v74l147 91l147 -91v-74z" />
    <glyph glyph-name="Otilde" unicode="&#xd5;" horiz-adv-x="760" 
d="M380 -14q-152 0 -248.5 100.5t-96.5 263.5t96.5 263.5t248.5 100.5t248.5 -100.5t96.5 -263.5t-96.5 -263.5t-248.5 -100.5zM380 591q-99 0 -152 -66t-53 -175t53 -175t152 -66t152 66t53 175t-53 175t-152 66zM450 799q-29 0 -69.5 21t-57.5 21q-20 0 -32 -14.5
t-16 -32.5l-83 20q5 47 42.5 74.5t82.5 27.5q33 0 67.5 -21t50.5 -21q22 0 38 15t19 32l76 -20q-7 -41 -38.5 -71.5t-79.5 -30.5z" />
    <glyph glyph-name="Odieresis" unicode="&#xd6;" horiz-adv-x="760" 
d="M380 -14q-152 0 -248.5 100.5t-96.5 263.5t96.5 263.5t248.5 100.5t248.5 -100.5t96.5 -263.5t-96.5 -263.5t-248.5 -100.5zM380 591q-99 0 -152 -66t-53 -175t53 -175t152 -66t152 66t53 175t-53 175t-152 66zM504 794h-97v106h97v-106zM353 794h-97v106h97v-106z" />
    <glyph glyph-name="multiply" unicode="&#xd7;" horiz-adv-x="448" 
d="M392 170l-61 -61l-107 107l-107 -107l-61 61l107 107l-107 107l61 61l107 -107l107 107l61 -61l-107 -107z" />
    <glyph glyph-name="Oslash" unicode="&#xd8;" horiz-adv-x="760" 
d="M380 -14q-87 0 -161 36l-36 -53h-134l81 118q-95 101 -95 263q0 163 96.5 263.5t248.5 100.5q85 0 156 -34l25 36h134l-69 -101q99 -101 99 -265q0 -163 -96.5 -263.5t-248.5 -100.5zM548 502l-257 -376q39 -17 89 -17q99 0 152 66t53 175q0 91 -37 152zM380 591
q-99 0 -152 -66t-53 -175q0 -89 34 -148l255 373q-38 16 -84 16z" />
    <glyph glyph-name="Ugrave" unicode="&#xd9;" horiz-adv-x="718" 
d="M359 -14q-144 0 -217 83.5t-73 230.5v400h128v-357q0 -111 34.5 -172.5t127.5 -61.5t127.5 61.5t34.5 172.5v357h128v-400q0 -147 -73 -230.5t-217 -83.5zM452 785l-187 61v104l187 -91v-74z" />
    <glyph glyph-name="Uacute" unicode="&#xda;" horiz-adv-x="718" 
d="M359 -14q-144 0 -217 83.5t-73 230.5v400h128v-357q0 -111 34.5 -172.5t127.5 -61.5t127.5 61.5t34.5 172.5v357h128v-400q0 -147 -73 -230.5t-217 -83.5zM452 846l-187 -61v74l187 91v-104z" />
    <glyph glyph-name="Ucircumflex" unicode="&#xdb;" horiz-adv-x="718" 
d="M359 -14q-144 0 -217 83.5t-73 230.5v400h128v-357q0 -111 34.5 -172.5t127.5 -61.5t127.5 61.5t34.5 172.5v357h128v-400q0 -147 -73 -230.5t-217 -83.5zM506 785l-147 71l-147 -71v74l147 91l147 -91v-74z" />
    <glyph glyph-name="Udieresis" unicode="&#xdc;" horiz-adv-x="718" 
d="M359 -14q-144 0 -217 83.5t-73 230.5v400h128v-357q0 -111 34.5 -172.5t127.5 -61.5t127.5 61.5t34.5 172.5v357h128v-400q0 -147 -73 -230.5t-217 -83.5zM483 794h-97v106h97v-106zM332 794h-97v106h97v-106z" />
    <glyph glyph-name="Yacute" unicode="&#xdd;" horiz-adv-x="598" 
d="M605 700l-242 -390v-310h-128v310l-242 390h136l170 -276l170 276h136zM392 846l-187 -61v74l187 91v-104z" />
    <glyph glyph-name="Thorn" unicode="&#xde;" horiz-adv-x="564" 
d="M251 193h-46v-193h-128v700h128v-131h46q61 0 103.5 -3.5t81.5 -15t61.5 -31t36 -52t13.5 -78.5q0 -109 -71.5 -152.5t-224.5 -43.5zM284 471h-79v-182h79q73 0 103 23.5t30 70.5q0 48 -29 68t-104 20z" />
    <glyph glyph-name="germandbls" unicode="&#xdf;" horiz-adv-x="565" 
d="M323 -15q-33 0 -60 5v93q45 0 68 1.5t45 8t30.5 20t8.5 37.5q0 36 -21.5 68t-47 51t-47 43.5t-21.5 47.5q0 22 22 50.5t44 66t22 79.5q0 46 -23 67t-56 21q-36 0 -56.5 -23t-20.5 -61v-696h-122v534h-71l11 102h60v55q0 85 62 140t138 55q32 0 64.5 -11t63 -32t50 -59
t19.5 -86q0 -37 -12 -72t-26 -55.5t-26 -39.5t-12 -28q0 -12 21 -31.5t46.5 -40t46.5 -60t21 -86.5q0 -86 -61.5 -125t-159.5 -39z" />
    <glyph glyph-name="agrave" unicode="&#xe0;" horiz-adv-x="498" 
d="M487 92l-11 -102h-45q-81 0 -112 58q-52 -58 -153 -58q-62 0 -103.5 40.5t-41.5 109.5q0 50 29.5 86.5t76.5 55t90.5 27.5t84.5 10q-2 44 -22.5 63t-67.5 19q-60 0 -137 -38l-11 101q91 44 182 44q181 0 181 -201v-135q0 -54 8 -67t36 -13h16zM303 121v114
q-60 -3 -106 -26t-46 -64q0 -60 67 -60q48 0 85 36zM343 585l-187 61v104l187 -91v-74z" />
    <glyph glyph-name="aacute" unicode="&#xe1;" horiz-adv-x="498" 
d="M487 92l-11 -102h-45q-81 0 -112 58q-52 -58 -153 -58q-62 0 -103.5 40.5t-41.5 109.5q0 50 29.5 86.5t76.5 55t90.5 27.5t84.5 10q-2 44 -22.5 63t-67.5 19q-60 0 -137 -38l-11 101q91 44 182 44q181 0 181 -201v-135q0 -54 8 -67t36 -13h16zM303 121v114
q-60 -3 -106 -26t-46 -64q0 -60 67 -60q48 0 85 36zM343 646l-187 -61v74l187 91v-104z" />
    <glyph glyph-name="acircumflex" unicode="&#xe2;" horiz-adv-x="498" 
d="M487 92l-11 -102h-45q-81 0 -112 58q-52 -58 -153 -58q-62 0 -103.5 40.5t-41.5 109.5q0 50 29.5 86.5t76.5 55t90.5 27.5t84.5 10q-2 44 -22.5 63t-67.5 19q-60 0 -137 -38l-11 101q91 44 182 44q181 0 181 -201v-135q0 -54 8 -67t36 -13h16zM303 121v114
q-60 -3 -106 -26t-46 -64q0 -60 67 -60q48 0 85 36zM397 585l-147 71l-147 -71v74l147 91l147 -91v-74z" />
    <glyph glyph-name="atilde" unicode="&#xe3;" horiz-adv-x="498" 
d="M487 92l-11 -102h-45q-81 0 -112 58q-52 -58 -153 -58q-62 0 -103.5 40.5t-41.5 109.5q0 50 29.5 86.5t76.5 55t90.5 27.5t84.5 10q-2 44 -22.5 63t-67.5 19q-60 0 -137 -38l-11 101q91 44 182 44q181 0 181 -201v-135q0 -54 8 -67t36 -13h16zM303 121v114
q-60 -3 -106 -26t-46 -64q0 -60 67 -60q48 0 85 36zM317 599q-29 0 -69.5 21t-57.5 21q-20 0 -32 -14.5t-16 -32.5l-83 20q5 47 42.5 74.5t82.5 27.5q33 0 67.5 -21t50.5 -21q22 0 38 15t19 32l76 -20q-7 -41 -38.5 -71.5t-79.5 -30.5z" />
    <glyph glyph-name="adieresis" unicode="&#xe4;" horiz-adv-x="498" 
d="M487 92l-11 -102h-45q-81 0 -112 58q-52 -58 -153 -58q-62 0 -103.5 40.5t-41.5 109.5q0 50 29.5 86.5t76.5 55t90.5 27.5t84.5 10q-2 44 -22.5 63t-67.5 19q-60 0 -137 -38l-11 101q91 44 182 44q181 0 181 -201v-135q0 -54 8 -67t36 -13h16zM303 121v114
q-60 -3 -106 -26t-46 -64q0 -60 67 -60q48 0 85 36zM374 594h-97v106h97v-106zM223 594h-97v106h97v-106z" />
    <glyph glyph-name="aring" unicode="&#xe5;" horiz-adv-x="498" 
d="M487 92l-11 -102h-45q-81 0 -112 58q-52 -58 -153 -58q-62 0 -103.5 40.5t-41.5 109.5q0 50 29.5 86.5t76.5 55t90.5 27.5t84.5 10q-2 44 -22.5 63t-67.5 19q-60 0 -137 -38l-11 101q91 44 182 44q181 0 181 -201v-135q0 -54 8 -67t36 -13h16zM303 121v114
q-60 -3 -106 -26t-46 -64q0 -60 67 -60q48 0 85 36zM250 576q-47 0 -75.5 25.5t-28.5 63.5t28.5 64t75.5 26t75.5 -26t28.5 -64t-28.5 -63.5t-75.5 -25.5zM250 706q-19 0 -31.5 -11.5t-12.5 -29.5t12.5 -29.5t31.5 -11.5t31.5 11.5t12.5 29.5t-12.5 29.5t-31.5 11.5z" />
    <glyph glyph-name="ae" unicode="&#xe6;" horiz-adv-x="794" 
d="M758 223h-317q10 -66 49.5 -98.5t93.5 -32.5q34 0 78 12t76 29l6 -105q-72 -38 -166 -38q-148 0 -200 94q-78 -99 -194 -99q-78 0 -121 38t-43 104q0 44 20.5 78t50 53t70.5 32t73.5 17.5t67.5 6.5q-2 47 -22 67t-69 20q-60 0 -137 -38l-11 101q91 44 181 44q60 0 97 -20
t54 -69q13 34 62.5 61.5t110.5 27.5q88 0 143 -59t55 -156q0 -32 -8 -70zM564 406q-45 0 -78 -27.5t-42 -71.5h211q0 40 -22 69.5t-69 29.5zM310 230q-60 -1 -110 -24t-50 -68q0 -26 17.5 -41.5t42.5 -15.5q38 0 69.5 32.5t31.5 88.5q0 17 -1 28z" />
    <glyph glyph-name="ccedilla" unicode="&#xe7;" horiz-adv-x="449" 
d="M271 -10q-115 0 -179 74t-64 185t64 185t179 74q91 0 150 -37l-11 -106q-62 41 -129 41q-59 0 -92.5 -43t-33.5 -114t33.5 -114t92.5 -43q67 0 129 41l11 -106q-59 -37 -150 -37zM340 -52l-100 -133l-74 -9l70 133z" />
    <glyph glyph-name="egrave" unicode="&#xe8;" horiz-adv-x="515" 
d="M480 223h-323q10 -65 52.5 -98t96.5 -33q34 0 78 12t76 29l6 -105q-72 -38 -167 -38q-130 0 -200.5 74t-70.5 185q0 109 64.5 184t175.5 75q96 0 158 -59.5t62 -157.5q0 -30 -8 -68zM272 406q-46 0 -74 -27t-38 -72h202q0 39 -22 69t-68 30zM351 585l-187 61v104l187 -91
v-74z" />
    <glyph glyph-name="eacute" unicode="&#xe9;" horiz-adv-x="515" 
d="M480 223h-323q10 -65 52.5 -98t96.5 -33q34 0 78 12t76 29l6 -105q-72 -38 -167 -38q-130 0 -200.5 74t-70.5 185q0 109 64.5 184t175.5 75q96 0 158 -59.5t62 -157.5q0 -30 -8 -68zM272 406q-46 0 -74 -27t-38 -72h202q0 39 -22 69t-68 30zM351 646l-187 -61v74l187 91
v-104z" />
    <glyph glyph-name="ecircumflex" unicode="&#xea;" horiz-adv-x="515" 
d="M480 223h-323q10 -65 52.5 -98t96.5 -33q34 0 78 12t76 29l6 -105q-72 -38 -167 -38q-130 0 -200.5 74t-70.5 185q0 109 64.5 184t175.5 75q96 0 158 -59.5t62 -157.5q0 -30 -8 -68zM272 406q-46 0 -74 -27t-38 -72h202q0 39 -22 69t-68 30zM404 585l-147 71l-147 -71v74
l147 91l147 -91v-74z" />
    <glyph glyph-name="edieresis" unicode="&#xeb;" horiz-adv-x="515" 
d="M480 223h-323q10 -65 52.5 -98t96.5 -33q34 0 78 12t76 29l6 -105q-72 -38 -167 -38q-130 0 -200.5 74t-70.5 185q0 109 64.5 184t175.5 75q96 0 158 -59.5t62 -157.5q0 -30 -8 -68zM272 406q-46 0 -74 -27t-38 -72h202q0 39 -22 69t-68 30zM381 594h-97v106h97v-106z
M230 594h-97v106h97v-106z" />
    <glyph glyph-name="igrave" unicode="&#xec;" horiz-adv-x="240" 
d="M182 0h-124v500h124v-500zM214 585l-187 61v104l187 -91v-74z" />
    <glyph glyph-name="iacute" unicode="&#xed;" horiz-adv-x="240" 
d="M182 0h-124v500h124v-500zM214 646l-187 -61v74l187 91v-104z" />
    <glyph glyph-name="icircumflex" unicode="&#xee;" horiz-adv-x="240" 
d="M182 0h-124v500h124v-500zM267 585l-147 71l-147 -71v74l147 91l147 -91v-74z" />
    <glyph glyph-name="idieresis" unicode="&#xef;" horiz-adv-x="240" 
d="M182 0h-124v500h124v-500zM244 594h-97v106h97v-106zM93 594h-97v106h97v-106z" />
    <glyph glyph-name="eth" unicode="&#xf0;" horiz-adv-x="501" 
d="M242 -13q-97 0 -161.5 61.5t-64.5 156.5q0 88 56 154.5t156 66.5q67 0 117 -39q-4 34 -24.5 85t-43.5 66q-66 -50 -137 -57l-39 73q52 0 120 44q-58 49 -118 50l41 53q75 -2 145 -52q37 34 56 62l67 -16q-39 -61 -69 -94q59 -63 94 -152.5t35 -190.5q0 -76 -21 -131.5
t-56 -84.5t-73 -42t-80 -13zM241 329q-51 0 -79 -33.5t-28 -75.5q0 -55 28.5 -93.5t81.5 -38.5q45 0 76.5 30t31.5 89q0 58 -28.5 90t-82.5 32z" />
    <glyph glyph-name="ntilde" unicode="&#xf1;" horiz-adv-x="552" 
d="M499 0h-124v269q0 70 -23.5 103.5t-75.5 33.5q-57 0 -94 -43v-363h-124v500h116l2 -30q52 38 110 38q213 0 213 -239v-269zM346 599q-29 0 -69.5 21t-57.5 21q-20 0 -32 -14.5t-16 -32.5l-83 20q5 47 42.5 74.5t82.5 27.5q33 0 67.5 -21t50.5 -21q22 0 38 15t19 32
l76 -20q-7 -41 -38.5 -71.5t-79.5 -30.5z" />
    <glyph glyph-name="ograve" unicode="&#xf2;" horiz-adv-x="562" 
d="M281 -10q-116 0 -184.5 75t-68.5 184t68.5 184t184.5 75t184.5 -75t68.5 -184t-68.5 -184t-184.5 -75zM281 406q-59 0 -92.5 -43t-33.5 -114t33.5 -114t92.5 -43t92.5 43t33.5 114t-33.5 114t-92.5 43zM374 585l-187 61v104l187 -91v-74z" />
    <glyph glyph-name="oacute" unicode="&#xf3;" horiz-adv-x="562" 
d="M281 -10q-116 0 -184.5 75t-68.5 184t68.5 184t184.5 75t184.5 -75t68.5 -184t-68.5 -184t-184.5 -75zM281 406q-59 0 -92.5 -43t-33.5 -114t33.5 -114t92.5 -43t92.5 43t33.5 114t-33.5 114t-92.5 43zM374 646l-187 -61v74l187 91v-104z" />
    <glyph glyph-name="ocircumflex" unicode="&#xf4;" horiz-adv-x="562" 
d="M281 -10q-116 0 -184.5 75t-68.5 184t68.5 184t184.5 75t184.5 -75t68.5 -184t-68.5 -184t-184.5 -75zM281 406q-59 0 -92.5 -43t-33.5 -114t33.5 -114t92.5 -43t92.5 43t33.5 114t-33.5 114t-92.5 43zM428 585l-147 71l-147 -71v74l147 91l147 -91v-74z" />
    <glyph glyph-name="otilde" unicode="&#xf5;" horiz-adv-x="562" 
d="M281 -10q-116 0 -184.5 75t-68.5 184t68.5 184t184.5 75t184.5 -75t68.5 -184t-68.5 -184t-184.5 -75zM281 406q-59 0 -92.5 -43t-33.5 -114t33.5 -114t92.5 -43t92.5 43t33.5 114t-33.5 114t-92.5 43zM351 599q-29 0 -69.5 21t-57.5 21q-20 0 -32 -14.5t-16 -32.5
l-83 20q5 47 42.5 74.5t82.5 27.5q33 0 67.5 -21t50.5 -21q22 0 38 15t19 32l76 -20q-7 -41 -38.5 -71.5t-79.5 -30.5z" />
    <glyph glyph-name="odieresis" unicode="&#xf6;" horiz-adv-x="562" 
d="M281 -10q-116 0 -184.5 75t-68.5 184t68.5 184t184.5 75t184.5 -75t68.5 -184t-68.5 -184t-184.5 -75zM281 406q-59 0 -92.5 -43t-33.5 -114t33.5 -114t92.5 -43t92.5 43t33.5 114t-33.5 114t-92.5 43zM405 594h-97v106h97v-106zM254 594h-97v106h97v-106z" />
    <glyph glyph-name="divide" unicode="&#xf7;" horiz-adv-x="561" 
d="M338 404h-124v130h124v-130zM510 230h-460v94h460v-94zM338 20h-124v130h124v-130z" />
    <glyph glyph-name="oslash" unicode="&#xf8;" horiz-adv-x="562" 
d="M281 -10q-35 0 -70 8l-16 -34h-106l36 75q-47 35 -72 90t-25 120q0 109 68.5 184t184.5 75q33 0 67 -8l16 34h109l-37 -75q98 -75 98 -210q0 -109 -68.5 -184t-184.5 -75zM383 349l-125 -255q14 -2 23 -2q59 0 92.5 43t33.5 114q0 57 -24 100zM281 406q-59 0 -92.5 -43
t-33.5 -114q0 -59 23 -100l123 255q-12 2 -20 2z" />
    <glyph glyph-name="ugrave" unicode="&#xf9;" horiz-adv-x="552" 
d="M494 0h-116l-2 30q-53 -40 -111 -40q-212 0 -212 241v269h124v-269q0 -70 23.5 -103.5t75.5 -33.5q58 0 94 42v364h124v-500zM369 585l-187 61v104l187 -91v-74z" />
    <glyph glyph-name="uacute" unicode="&#xfa;" horiz-adv-x="552" 
d="M494 0h-116l-2 30q-53 -40 -111 -40q-212 0 -212 241v269h124v-269q0 -70 23.5 -103.5t75.5 -33.5q58 0 94 42v364h124v-500zM369 646l-187 -61v74l187 91v-104z" />
    <glyph glyph-name="ucircumflex" unicode="&#xfb;" horiz-adv-x="552" 
d="M494 0h-116l-2 30q-53 -40 -111 -40q-212 0 -212 241v269h124v-269q0 -70 23.5 -103.5t75.5 -33.5q58 0 94 42v364h124v-500zM423 585l-147 71l-147 -71v74l147 91l147 -91v-74z" />
    <glyph glyph-name="udieresis" unicode="&#xfc;" horiz-adv-x="552" 
d="M494 0h-116l-2 30q-53 -40 -111 -40q-212 0 -212 241v269h124v-269q0 -70 23.5 -103.5t75.5 -33.5q58 0 94 42v364h124v-500zM400 594h-97v106h97v-106zM249 594h-97v106h97v-106z" />
    <glyph glyph-name="yacute" unicode="&#xfd;" horiz-adv-x="537" 
d="M535 500l-313 -742h-124l111 275l-208 467h138l128 -322l130 322h138zM362 646l-187 -61v74l187 91v-104z" />
    <glyph glyph-name="thorn" unicode="&#xfe;" horiz-adv-x="571" 
d="M298 -10q-66 0 -117 34v-266h-124v992h124v-275q50 33 117 33q115 0 180 -74.5t65 -184.5t-65 -184.5t-180 -74.5zM290 406q-58 0 -86.5 -42t-28.5 -115t28.5 -115t86.5 -42q59 0 92.5 43t33.5 114t-33.5 114t-92.5 43z" />
    <glyph glyph-name="ydieresis" unicode="&#xff;" horiz-adv-x="537" 
d="M535 500l-313 -742h-124l111 275l-208 467h138l128 -322l130 322h138zM392 594h-97v106h97v-106zM241 594h-97v106h97v-106z" />
    <glyph glyph-name="dotlessi" unicode="&#x131;" horiz-adv-x="240" 
d="M182 0h-124v500h124v-500z" />
    <glyph glyph-name="OE" unicode="&#x152;" horiz-adv-x="1063" 
d="M1029 0h-436v55q-91 -69 -213 -69q-152 0 -248.5 100.5t-96.5 263.5t96.5 263.5t248.5 100.5q122 0 213 -69v55h427v-124h-296v-149h228v-124h-228v-179h305v-124zM380 591q-99 0 -152 -66t-53 -175t53 -175t152 -66t152 66t53 175t-53 175t-152 66z" />
    <glyph glyph-name="oe" unicode="&#x153;" horiz-adv-x="895" 
d="M860 223h-323q10 -65 52.5 -98t96.5 -33q34 0 78 12t76 29l6 -105q-72 -38 -167 -38q-135 0 -208 81q-70 -81 -190 -81q-116 0 -184.5 75t-68.5 184t68.5 184t184.5 75q117 0 188 -79q67 79 179 79q96 0 158 -59.5t62 -157.5q0 -30 -8 -68zM652 406q-46 0 -74 -27
t-38 -72h202q0 39 -22 69t-68 30zM281 406q-59 0 -92.5 -43t-33.5 -114t33.5 -114t92.5 -43t92.5 43t33.5 114t-33.5 114t-92.5 43z" />
    <glyph glyph-name="Scaron" unicode="&#x160;" horiz-adv-x="580" 
d="M280 -14q-75 0 -137 15t-95 36l15 146q32 -31 89.5 -52.5t130.5 -21.5q125 0 125 76q0 21 -10 38t-21.5 28t-38.5 23.5t-42 18t-51 17.5q-31 10 -43.5 15t-40 16.5t-40.5 20t-32 24t-28 31.5t-16 38.5t-7 48.5q0 82 62 146t191 64q67 0 129.5 -17t93.5 -37l-13 -131
q-115 63 -205 63q-51 0 -89.5 -17t-38.5 -57q0 -38 35 -58.5t106 -42.5q37 -11 56.5 -18t53.5 -21t53 -29.5t39.5 -38t30 -53t9.5 -67.5q0 -28 -5 -52.5t-22.5 -53.5t-46 -49.5t-79 -34.5t-118.5 -14zM437 876l-147 -91l-147 91v74l147 -71l147 71v-74z" />
    <glyph glyph-name="scaron" unicode="&#x161;" horiz-adv-x="423" 
d="M200 -10q-113 0 -169 37l11 106q25 -19 69.5 -34.5t84.5 -15.5q41 0 58.5 16t17.5 39q0 28 -22.5 42.5t-69.5 28.5q-28 8 -43 13.5t-37.5 17t-34 25t-20.5 35t-9 49.5q0 63 43.5 111t139.5 48q46 0 90.5 -11t66.5 -26l-11 -106q-21 21 -60 37.5t-77 16.5
q-36 0 -59.5 -13.5t-23.5 -41.5q0 -8 1.5 -14.5t5.5 -12t8 -10t12 -8.5t13.5 -6.5t16.5 -6t17 -5.5t19.5 -5.5t20.5 -5.5q63 -18 100 -51t37 -102q0 -147 -196 -147zM355 676l-147 -91l-147 91v74l147 -71l147 71v-74z" />
    <glyph glyph-name="Ydieresis" unicode="&#x178;" horiz-adv-x="598" 
d="M605 700l-242 -390v-310h-128v310l-242 390h136l170 -276l170 276h136zM423 794h-97v106h97v-106zM272 794h-97v106h97v-106z" />
    <glyph glyph-name="Zcaron" unicode="&#x17d;" horiz-adv-x="548" 
d="M541 700l-322 -576h277v-124h-488l322 576h-277v124h488zM420 876l-147 -91l-147 91v74l147 -71l147 71v-74z" />
    <glyph glyph-name="zcaron" unicode="&#x17e;" horiz-adv-x="472" 
d="M452 500l-221 -390h210v-110h-420l221 390h-211v110h421zM383 676l-147 -91l-147 91v74l147 -71l147 71v-74z" />
    <glyph glyph-name="florin" unicode="&#x192;" horiz-adv-x="355" 
d="M378 702l-11 -94q-32 7 -48 7q-43 0 -61.5 -24.5t-29.5 -90.5h127l-8 -82h-132l-78 -499q-13 -82 -49.5 -121.5t-71.5 -39.5h-31l-20 102q31 0 46.5 15.5t22.5 64.5l70 478h-78l9 82h81l6 39q13 81 64 128t122 47q34 0 70 -12z" />
    <glyph glyph-name="dotlessj" unicode="&#x237;" horiz-adv-x="240" 
d="M54 -242h-45l-11 102q41 0 50.5 11.5t9.5 68.5v560h124v-611q0 -58 -32 -94.5t-96 -36.5z" />
    <glyph glyph-name="circumflex" unicode="&#x2c6;" horiz-adv-x="446" 
d="M370 585l-147 71l-147 -71v74l147 91l147 -91v-74z" />
    <glyph glyph-name="caron" unicode="&#x2c7;" horiz-adv-x="446" 
d="M370 676l-147 -91l-147 91v74l147 -71l147 71v-74z" />
    <glyph glyph-name="ring" unicode="&#x2da;" horiz-adv-x="292" 
d="M146 576q-47 0 -75.5 25.5t-28.5 63.5t28.5 64t75.5 26t75.5 -26t28.5 -64t-28.5 -63.5t-75.5 -25.5zM146 706q-19 0 -31.5 -11.5t-12.5 -29.5t12.5 -29.5t31.5 -11.5t31.5 11.5t12.5 29.5t-12.5 29.5t-31.5 11.5z" />
    <glyph glyph-name="tilde" unicode="&#x2dc;" horiz-adv-x="528" 
d="M334 599q-29 0 -69.5 21t-57.5 21q-20 0 -32 -14.5t-16 -32.5l-83 20q5 47 42.5 74.5t82.5 27.5q33 0 67.5 -21t50.5 -21q22 0 38 15t19 32l76 -20q-7 -41 -38.5 -71.5t-79.5 -30.5z" />
    <glyph glyph-name="endash" unicode="&#x2013;" horiz-adv-x="496" 
d="M442 230h-388v94h388v-94z" />
    <glyph glyph-name="emdash" unicode="&#x2014;" horiz-adv-x="588" 
d="M534 230h-480v94h480v-94z" />
    <glyph glyph-name="quoteleft" unicode="&#x2018;" horiz-adv-x="210" 
d="M43 640l98 110l26 -14l-33 -86l33 -10v-130h-124v130z" />
    <glyph glyph-name="quoteright" unicode="&#x2019;" horiz-adv-x="192" 
d="M165 620l-98 -110l-26 14l33 86l-33 10v130h124v-130z" />
    <glyph glyph-name="quotesinglbase" unicode="&#x201a;" horiz-adv-x="232" 
d="M178 0l-98 -110l-26 14l33 86l-33 10v130h124v-130z" />
    <glyph glyph-name="quotedblleft" unicode="&#x201c;" horiz-adv-x="420" 
d="M43 640l98 110l26 -14l-33 -86l33 -10v-130h-124v130zM253 640l98 110l26 -14l-33 -86l33 -10v-130h-124v130z" />
    <glyph glyph-name="quotedblright" unicode="&#x201d;" horiz-adv-x="402" 
d="M375 620l-98 -110l-26 14l33 86l-33 10v130h124v-130zM165 620l-98 -110l-26 14l33 86l-33 10v130h124v-130z" />
    <glyph glyph-name="quotedblbase" unicode="&#x201e;" horiz-adv-x="462" 
d="M178 0l-98 -110l-26 14l33 86l-33 10v130h124v-130zM408 0l-98 -110l-26 14l33 86l-33 10v130h124v-130z" />
    <glyph glyph-name="dagger" unicode="&#x2020;" horiz-adv-x="426" 
d="M390 349l-131 26l29 -118l-30 -257h-90l-30 257l29 118l-131 -26v132l131 -27l-29 153h150l-29 -153l131 27v-132z" />
    <glyph glyph-name="daggerdbl" unicode="&#x2021;" horiz-adv-x="472" 
d="M413 67l-131 27l29 -153h-150l29 153l-131 -27v132l131 -26l-29 101l29 101l-131 -26v132l131 -27l-29 153h150l-29 -153l131 27v-132l-131 26l29 -101l-29 -101l131 26v-132z" />
    <glyph glyph-name="bullet" unicode="&#x2022;" horiz-adv-x="298" 
d="M149 169q-45 0 -77 32t-32 77t32 77t77 32t77 -32t32 -77t-32 -77t-77 -32z" />
    <glyph glyph-name="ellipsis" unicode="&#x2026;" horiz-adv-x="704" 
d="M178 0h-124v130h124v-130zM414 0h-124v130h124v-130zM650 0h-124v130h124v-130z" />
    <glyph glyph-name="perthousand" unicode="&#x2030;" horiz-adv-x="1204" 
d="M655 -9q-68 0 -109 49.5t-41 131.5q0 85 44 136.5t111 51.5q66 0 108 -49t42 -131q0 -86 -42.5 -137.5t-112.5 -51.5zM674 700l-422 -712h-104l422 712h104zM185 335q-68 0 -109 49.5t-41 131.5q0 85 44 136.5t111 51.5q66 0 108 -49t42 -131q0 -86 -42.5 -137.5
t-112.5 -51.5zM659 288q-31 0 -52.5 -29.5t-21.5 -86.5q0 -55 19.5 -81t51.5 -26q75 0 75 115q0 54 -21 81t-51 27zM189 632q-31 0 -52.5 -29t-21.5 -87q0 -55 19.5 -81t51.5 -26q75 0 75 115q0 54 -21 81t-51 27zM1016 -9q-68 0 -109 49.5t-41 131.5q0 85 44 136.5
t111 51.5q66 0 108 -49t42 -131q0 -86 -42.5 -137.5t-112.5 -51.5zM1020 288q-31 0 -52.5 -29.5t-21.5 -86.5q0 -55 19.5 -81t51.5 -26q75 0 75 115q0 54 -21 81t-51 27z" />
    <glyph glyph-name="guilsinglleft" unicode="&#x2039;" horiz-adv-x="347" 
d="M310 78h-147l-152 206l152 206h147l-152 -206z" />
    <glyph glyph-name="guilsinglright" unicode="&#x203a;" horiz-adv-x="347" 
d="M336 284l-152 -206h-147l152 206l-152 206h147z" />
    <glyph glyph-name="zerosuperior" unicode="&#x2070;" horiz-adv-x="399" 
d="M196 312q-76 0 -121.5 53.5t-45.5 138.5q0 87 49.5 144.5t124.5 57.5q73 0 120 -55.5t47 -139.5q0 -88 -47.5 -143.5t-126.5 -55.5zM202 622q-30 0 -54 -30t-24 -88q0 -55 20.5 -80t52.5 -25q79 0 79 112q0 55 -22.5 83t-51.5 28z" />
    <glyph glyph-name="foursuperior" unicode="&#x2074;" horiz-adv-x="348" 
d="M322 423h-49v-103h-96v103h-175l187 275h84v-204h49v-71zM177 494v76l-54 -76h54z" />
    <glyph glyph-name="fivesuperior" unicode="&#x2075;" horiz-adv-x="307" 
d="M141 314q-19 0 -62 13.5t-55 30.5l23 86q21 -39 118 -39q14 0 20 8t6 31q0 36 -68 36h-79l27 218h188l-10 -99h-107l-7 -43q143 -2 143 -115q0 -67 -39.5 -97t-97.5 -30z" />
    <glyph glyph-name="sixsuperior" unicode="&#x2076;" horiz-adv-x="318" 
d="M155 312q-57 0 -91.5 38.5t-34.5 117.5q0 93 63.5 160.5t110.5 69.5l64 -37q-26 0 -83 -54.5t-57 -66.5q13 8 52 8q51 0 84.5 -29t33.5 -80q0 -50 -40 -88.5t-102 -38.5zM172 473q-27 0 -39.5 -8.5t-12.5 -33.5q0 -12 15.5 -21.5t27.5 -9.5q19 0 34 12.5t15 32.5
q0 11 -13 19.5t-27 8.5z" />
    <glyph glyph-name="sevensuperior" unicode="&#x2077;" horiz-adv-x="298" 
d="M300 698l-160 -378h-105l120 279h-127v99h272z" />
    <glyph glyph-name="eightsuperior" unicode="&#x2078;" horiz-adv-x="341" 
d="M164 312q-65 0 -100 29t-35 76q0 53 42 107q-9 6 -15 32.5t-6 50.5q0 99 123 99q119 0 119 -90q0 -21 -9.5 -49t-16.5 -39q15 -15 31 -42.5t16 -50.5q0 -49 -38 -86t-111 -37zM171 640q-18 0 -27 -7.5t-11 -16t-2 -22.5q0 -41 35 -41q39 0 39 44q0 12 -1 19.5t-9 15.5
t-24 8zM174 494q-18 0 -39 -18.5t-21 -45.5q0 -21 14.5 -35t38.5 -14q30 0 41.5 12t11.5 36q0 30 -14 47.5t-32 17.5z" />
    <glyph glyph-name="ninesuperior" unicode="&#x2079;" horiz-adv-x="317" 
d="M161 706q59 0 93 -40.5t34 -115.5q0 -81 -57 -155.5t-125 -74.5l-53 37q32 0 90 45.5t58 80.5q-19 -12 -59 -12q-42 0 -82.5 29.5t-40.5 75.5q0 52 39.5 91t102.5 39zM150 545q26 0 39 8t13 31q0 38 -42 38q-20 0 -33 -14.5t-13 -29.5q0 -16 10.5 -24.5t25.5 -8.5z" />
    <glyph glyph-name="zeroinferior" unicode="&#x2080;" horiz-adv-x="425" 
d="M209 -8q-76 0 -121.5 53.5t-45.5 138.5q0 87 49.5 144.5t124.5 57.5q73 0 120 -55.5t47 -139.5q0 -88 -47.5 -143.5t-126.5 -55.5zM215 302q-30 0 -54 -30t-24 -88q0 -55 20.5 -80t52.5 -25q79 0 79 112q0 55 -22.5 83t-51.5 28z" />
    <glyph glyph-name="oneinferior" unicode="&#x2081;" horiz-adv-x="242" 
d="M178 0h-96v247l-41 -2v74q19 0 38 19.5t23 39.5h76v-378z" />
    <glyph glyph-name="twoinferior" unicode="&#x2082;" horiz-adv-x="333" 
d="M287 0h-259q156 214 156 270q0 43 -36 43q-18 0 -35 -9t-28.5 -22t-18 -22.5t-10.5 -16.5l-12 87q31 56 121 56q58 0 83.5 -30t25.5 -69q0 -66 -81 -188h94v-99z" />
    <glyph glyph-name="threeinferior" unicode="&#x2083;" horiz-adv-x="331" 
d="M137 -8q-33 0 -67 10.5t-40 19.5l24 90q9 -9 32.5 -15.5t43.5 -6.5q67 0 67 22q0 57 -44 57h-66l7 72h34q19 0 31.5 6.5t16 13t3.5 11.5q0 37 -63 37q-33 0 -47 -13l-13 65q12 11 38 18t50 7q38 0 65.5 -10.5t40 -28t18 -34t5.5 -33.5q0 -18 -4.5 -35t-8.5 -25.5t-7 -9.5
q3 -7 13 -21t16 -30t6 -39q0 -60 -44.5 -94t-106.5 -34z" />
    <glyph glyph-name="fourinferior" unicode="&#x2084;" horiz-adv-x="373" 
d="M333 103h-49v-103h-96v103h-175l187 275h84v-204h49v-71zM188 174v76l-54 -76h54z" />
    <glyph glyph-name="fiveinferior" unicode="&#x2085;" horiz-adv-x="335" 
d="M155 -6q-22 0 -62 11.5t-55 32.5l23 86q21 -39 118 -39q14 0 20 8t6 31q0 36 -68 36h-79l27 218h188l-10 -99h-107l-7 -43q143 -2 143 -115q0 -67 -39.5 -97t-97.5 -30z" />
    <glyph glyph-name="sixinferior" unicode="&#x2086;" horiz-adv-x="343" 
d="M168 -8q-57 0 -91.5 38.5t-34.5 117.5q0 49 21 94t50 73.5t57.5 45.5t45.5 17l64 -37q-35 0 -87.5 -51.5t-52.5 -68.5q11 7 48 7q55 0 88.5 -29t33.5 -80q0 -50 -40 -88.5t-102 -38.5zM185 154q-26 0 -39 -9t-13 -34q0 -12 15.5 -22t27.5 -10q18 0 33.5 13t15.5 33
q0 11 -13 20t-27 9z" />
    <glyph glyph-name="seveninferior" unicode="&#x2087;" horiz-adv-x="334" 
d="M314 378l-160 -378h-105l120 279h-127v99h272z" />
    <glyph glyph-name="eightinferior" unicode="&#x2088;" horiz-adv-x="367" 
d="M177 -8q-65 0 -100 29t-35 76q0 53 42 107q-9 6 -15 32.5t-6 50.5q0 99 123 99q119 0 119 -90q0 -21 -9.5 -49t-16.5 -39q15 -15 31 -42.5t16 -50.5q0 -49 -38 -86t-111 -37zM184 320q-26 0 -33 -12t-7 -34q0 -41 35 -41q39 0 39 44q0 12 -1 19.5t-9 15.5t-24 8zM187 174
q-18 0 -39 -18.5t-21 -45.5q0 -21 14.5 -35t38.5 -14q30 0 41.5 12t11.5 36q0 30 -14 47.5t-32 17.5z" />
    <glyph glyph-name="nineinferior" unicode="&#x2089;" horiz-adv-x="340" 
d="M171 386q59 0 93 -40.5t34 -115.5q0 -81 -57 -155.5t-125 -74.5l-53 37q33 0 90 45t59 82q-21 -13 -61 -13q-51 0 -86.5 28.5t-35.5 76.5q0 52 39.5 91t102.5 39zM160 225q26 0 39 8t13 31q0 37 -41 37q-20 0 -33.5 -14t-13.5 -29q0 -16 10.5 -24.5t25.5 -8.5z" />
    <glyph glyph-name="Euro" unicode="&#x20ac;" horiz-adv-x="703" 
d="M469 17q-101 0 -179 51t-114 141h-144l30 86h92q-3 25 -3 55v14h-90l28 81h73q27 110 110 174t197 64q106 0 181 -37l-14 -113q-94 40 -167 40q-135 0 -174 -128h251l-30 -81h-234v-14q0 -32 4 -55h241l-30 -86h-183q47 -82 155 -82q73 0 167 40l14 -113
q-75 -37 -181 -37z" />
    <glyph glyph-name="trademark" unicode="&#x2122;" horiz-adv-x="739" 
d="M501 425h-11l-75 124l-27 -212h-82l49 363h50l91 -148l90 148h51l49 -363h-83l-26 212zM313 700l-10 -78h-94v-285h-80v285h-97v78h281z" />
    <glyph glyph-name="A.sc" horiz-adv-x="558" 
d="M554 0h-127l-51 131h-194l-50 -131h-128l218 581h114zM333 251l-55 131l-53 -131h108z" />
    <glyph glyph-name="AE.sc" horiz-adv-x="768" 
d="M736 0h-384v135h-164l-68 -135h-130l300 581h438v-120h-255v-99h196v-119h-196v-123h263v-120zM352 253v206l-107 -206h107z" />
    <glyph glyph-name="B.sc" horiz-adv-x="571" 
d="M318 0h-247v581h176q58 0 97.5 -5.5t73 -21t50 -47t16.5 -79.5q0 -40 -14 -71.5t-38 -45.5q54 -19 81.5 -51.5t27.5 -89.5q0 -87 -66.5 -128.5t-156.5 -41.5zM301 480h-107v-128h112q23 0 45 14.5t22 40.5q0 39 -18 56t-54 17zM306 262h-112v-161h120q100 0 100 82
q0 79 -108 79z" />
    <glyph glyph-name="C.sc" horiz-adv-x="545" 
d="M336 -12q-132 0 -217 84t-85 219t85 218.5t217 83.5q103 0 177 -34l-14 -117q-79 32 -163 32q-82 0 -124.5 -49.5t-42.5 -133.5q0 -85 42.5 -134.5t123.5 -49.5q85 0 164 32l14 -116q-72 -35 -177 -35z" />
    <glyph glyph-name="D.sc" horiz-adv-x="641" 
d="M303 0h-232v581h232q134 0 218 -78t84 -212q0 -135 -84 -213t-218 -78zM303 462h-109v-343h109q83 0 125 44.5t42 127.5q0 82 -42 126.5t-125 44.5z" />
    <glyph glyph-name="E.sc" horiz-adv-x="512" 
d="M481 0h-410v581h401v-120h-274v-99h211v-119h-211v-123h283v-120z" />
    <glyph glyph-name="F.sc" horiz-adv-x="472" 
d="M452 461h-258v-99h199v-119h-199v-243h-123v581h381v-120z" />
    <glyph glyph-name="G.sc" horiz-adv-x="591" 
d="M335 -12q-131 0 -216 84t-85 219t85 218.5t221 83.5q47 0 100.5 -9.5t85.5 -25.5l-14 -119q-81 35 -169 35q-87 0 -130.5 -49t-43.5 -131q0 -86 45.5 -136.5t130.5 -50.5q20 0 78 6v81h-57v97h180v-259q-32 -18 -95 -31t-116 -13z" />
    <glyph glyph-name="H.sc" horiz-adv-x="658" 
d="M587 0h-124v243h-269v-243h-123v581h123v-219h269v219h124v-581z" />
    <glyph glyph-name="I.sc" horiz-adv-x="265" 
d="M194 0h-123v581h123v-581z" />
    <glyph glyph-name="J.sc" horiz-adv-x="265" 
d="M53 -143h-38l-9 98h31q34 0 34 51v575h123v-597q0 -64 -38 -95.5t-103 -31.5z" />
    <glyph glyph-name="K.sc" horiz-adv-x="570" 
d="M562 0h-140l-210 307l210 274h140l-210 -274zM194 0h-123v581h123v-581z" />
    <glyph glyph-name="L.sc" horiz-adv-x="449" 
d="M437 0h-366v581h123v-461h243v-120z" />
    <glyph glyph-name="M.sc" horiz-adv-x="750" 
d="M708 0h-128l-51 362l-154 -249l-154 248l-50 -361h-128l86 581h100l147 -252l145 252h100z" />
    <glyph glyph-name="N.sc" horiz-adv-x="632" 
d="M561 0h-101l-266 366v-366h-123v581h118l249 -343v343h123v-581z" />
    <glyph glyph-name="O.sc" horiz-adv-x="676" 
d="M338 -12q-133 0 -218.5 84t-85.5 219t85.5 218.5t218.5 83.5t218 -83.5t85 -218.5t-85 -219t-218 -84zM338 474q-82 0 -125.5 -49.5t-43.5 -133.5q0 -85 43.5 -134.5t125.5 -49.5t125 49.5t43 134.5q0 84 -43 133.5t-125 49.5z" />
    <glyph glyph-name="OE.sc" horiz-adv-x="941" 
d="M909 0h-392v33q-75 -45 -177 -45q-134 0 -220 84t-86 219t86 218.5t220 83.5q102 0 177 -45v33h384v-120h-256v-99h197v-119h-197v-123h264v-120zM340 474q-82 0 -126 -50t-44 -133q0 -84 44 -134t126 -50t126 50t44 134q0 83 -44 133t-126 50z" />
    <glyph glyph-name="P.sc" horiz-adv-x="542" 
d="M294 184h-101v-184h-122v581h166q78 0 125.5 -6.5t86 -26t54.5 -56.5t16 -97q0 -62 -22 -106t-58 -65.5t-71.5 -30.5t-73.5 -9zM285 482h-92v-183h86q64 0 90 19.5t26 76.5q0 46 -23 66.5t-87 20.5z" />
    <glyph glyph-name="Q.sc" horiz-adv-x="676" 
d="M646 73l-73 -87l-62 49q-69 -47 -173 -47q-133 0 -218.5 84t-85.5 219t85.5 218.5t218.5 83.5t218 -83.5t85 -218.5q0 -106 -51 -175zM338 474q-82 0 -125.5 -49.5t-43.5 -133.5q0 -85 43.5 -134.5t125.5 -49.5q25 0 71 12l-68 53l73 86l72 -53q17 36 17 86
q0 84 -42 133.5t-123 49.5z" />
    <glyph glyph-name="R.sc" horiz-adv-x="569" 
d="M553 0h-127l-124 210h-109v-210h-122v581h235q95 0 153 -39.5t58 -126.5q0 -47 -16 -82t-34.5 -52t-51.5 -39zM271 479h-78v-157h64q44 0 72 7t40 20.5t15.5 25t3.5 28.5q0 40 -23 58t-94 18z" />
    <glyph glyph-name="S.sc" horiz-adv-x="520" 
d="M252 -12q-67 0 -122 13t-84 32l14 137q26 -27 77 -45t118 -18q49 0 72.5 11t23.5 38q0 12 -4.5 22.5t-16.5 19.5t-21 15.5t-30 14.5t-30.5 11.5t-35.5 12.5q-36 12 -51 18t-44.5 21t-43 29.5t-25 39t-11.5 55.5q0 70 55 124t168 54q60 0 116 -15t81 -33l-12 -122
q-96 52 -182 52q-103 0 -103 -48q0 -15 8.5 -27t29 -21.5t36 -14.5t47.5 -14q35 -10 57 -17t54 -23t50.5 -34t32 -47.5t13.5 -66.5q0 -24 -4.5 -45t-20 -45.5t-40.5 -42t-69 -29.5t-103 -12z" />
    <glyph glyph-name="T.sc" horiz-adv-x="500" 
d="M484 461h-172v-461h-124v461h-172v120h468v-120z" />
    <glyph glyph-name="U.sc" horiz-adv-x="638" 
d="M319 -12q-126 0 -190.5 70.5t-64.5 191.5v331h123v-296q0 -88 28 -133t104 -45t104 45t28 133v296h123v-331q0 -121 -64 -191.5t-191 -70.5z" />
    <glyph glyph-name="V.sc" horiz-adv-x="585" 
d="M581 581l-209 -581h-155l-217 581h128l165 -414l162 414h126z" />
    <glyph glyph-name="W.sc" horiz-adv-x="852" 
d="M844 581l-180 -581h-102l-134 340l-132 -340h-111l-174 581h128l118 -370l131 376h79l138 -360l112 354h127z" />
    <glyph glyph-name="X.sc" horiz-adv-x="572" 
d="M570 0h-146l-139 200l-140 -200h-144l221 290l-208 291h143l136 -192l116 192h144l-196 -279z" />
    <glyph glyph-name="Y.sc" horiz-adv-x="537" 
d="M544 581l-215 -330v-251h-121v251l-215 330h131l145 -222l144 222h131z" />
    <glyph glyph-name="Z.sc" horiz-adv-x="492" 
d="M481 581l-266 -461h226v-120h-429l266 461h-226v120h429z" />
    </font>
</defs>
</svg>
